Free! - Iwatobi Swim Club (12) | Season 5 Episode 4 News Flash | Mom 2. Sezon

Laila Majnu (2018) Hindi 720p WEB-DL DD5 Torrent Free Download

Seeders : 170   &   Leechers : 407      09-11-2018 (3 days)
Laila Majnu (2018) Hindi 720p WEB-DL DD5 Torrent Download
Added: ago by 1337xHD ***** in Movies   1.3 GB   Hits : 20
Info Hash: 3A7215FD94E501792A303070B2B77E6D916A2948 Download
Laila Majnu (2018) Hindi 720p WEB-DL DD5 Torrent Download

Anonymous and Direct Download movies , software , shows...

Fast Safe Anonymous
movies, software, shows...
Laila Majnu
Drama /Romance  .   140 min   8.3/10
Director : Sajid Ali  
Writer: Imtiaz Ali  Sajid Ali  
Tags: Laila  Majnu  (2018)  Hindi  720p  WEB-DL  

Released:
07 Sep 2018
Taking the leap out of the classic folklore, the story is set in today's time in Kashmir where Laila Majnu have problems relevant to the youth of today. While dealing with their feuding families a passionate love story unravels.

Torrent Description



http://hdfilmboss.mobi/
http://1337xhd.com/



Official Website http://hdfilmboss.mobi/
Official Website http://1337xhd.com/



General
Complete name : P:\1337xHD.Com-Laila Majnu (2018) indi 720p WEB-DL DD5.1 H264 AC3 1.2GB ESub.mp4
Format : MPEG-4
Format profile : Base Media
Codec ID : isom (isom/iso2/avc1/mp41)
File size : 1.29 GiB
Duration : 2 h 12 min
Overall bit rate : 1 393 kb/s
Movie name : WWW.HDFilmBoss.Mobi
Writing application : Lavf58.12.100

Video
ID : 1
Format : AVC
Format/Info : Advanced Video Codec
Format profile : [email protected]
Format settings : CABAC / 4 Ref Frames
Format settings, CABAC : Yes
Format settings, RefFrames : 4 frames
Codec ID : avc1
Codec ID/Info : Advanced Video Coding
Duration : 2 h 12 min
Bit rate : 1 260 kb/s
Width : 1 274 pixels
Height : 720 pixels
Display aspect ratio : 16:9
Frame rate mode : Constant
Frame rate : 25.000 FPS
Color space : YUV
Chroma subsampling : 4:2:0
Bit depth : 8 bits
Scan type : Progressive
Bits/(Pixel*Frame) : 0.055
Stream size : 1.16 GiB (90%)
Title : WWW.1337xHD.Com
Writing library : x264 core 148 r2643 5c65704
Codec configuration box : avcC

Audio
ID : 2
Format : AAC LC
Format/Info : Advanced Audio Codec Low Complexity
Codec ID : mp4a-40-2
Duration : 2 h 12 min
Bit rate mode : Constant
Bit rate : 128 kb/s
Channel(s) : 1 channel
Channel layout : C
Sampling rate : 44.1 kHz
Frame rate : 43.066 FPS (1024 SPF)
Compression mode : Lossy
Stream size : 121 MiB (9%)
Title : WWW.1337xHD.Com
Default : Yes
Alternate group : 1














Sharing Widget


No Comments For This Torrent . Be The First to Comment

You must Login to Comment . Click Here to Login

Menu 1

Some content in menu 1.

Laila Majnu (2018) Hindi 720p WEB-DL DD5 1 H264 AC3 1 3GB ESub -HD (Size: 1.3 GB)
  Laila Majnu (2018) Hindi 720p WEB-DL DD5 1 H264 AC3 1 3GB ESub -HD 1.3 GB
tracker name
udp://tracker.leechers-paradise.org:6969/announce
udp://zer0day.ch:1337/announce
udp://open.demonii.com:1337/announce
udp://tracker.coppersurfer.tk:6969/announce
udp://exodus.desync.com:6969/announce
µTorrent compatible trackers list

Relative Torrents

Torrent Name Size Age SEED LEECH
Swiftly switch – Pro v3 2 0 1 Mod Apk CracksMind]
Posted by    cracksmind   in   Applications
14.0 MB 2 minutes 444 323
Star Wars Resistance S01E06 Signal from ector Six 720p WEB-DL DD5 1 AAC2 0 H 26
Posted by    mazemaze16   in   TV
729.3 MB 2 minutes 902 170
Mastermind 2018/2019 E04-E06 (1280x720p D, 50fps, soft Eng subs)
Posted by    ElsonRoa   in   TV
3.1 GB 7 minutes 583 608
Talking Dead S08E06 WEB h264-KOMPOST[TGx
Posted by    mazemaze16   in   TV
392.6 MB 7 minutes 75 716
Talking Dead S08E06 720p WEB h264-KOMPOS [eztv]
Posted by    EZTVag   in   TV
751.3 MB 7 minutes 163 947