Pumpkin Scissors | BlazBlue: Alter Memory Subtitle Indonesia | IMDb: 4 HD Air Strike

Ice Age Collision Course (2016) x 1600 ( Torrent Free Download

Seeders : 209   &   Leechers : 646      09-11-2018 (3 days)
Ice Age Collision Course (2016) x 1600 ( Torrent Download
Added: ago by PhunPsyz ***** in Movies   2.9 GB   Hits : 22
Info Hash: 83FB75B0FE40132A10E80D1B1A1601A40213B7F2 Download
Ice Age Collision Course (2016) x 1600 ( Torrent Download

Anonymous and Direct Download movies , software , shows...

Fast Safe Anonymous
movies, software, shows...
Ice Age: Collision Course
Animation /Adventure /Comedy  .   94 min   5.7/10
Tags: Ice  Age  Collision  Course  (2016)  x  

Released:
22 Jul 2016
Scrat's epic pursuit of his elusive acorn catapults him outside of Earth, where he accidentally sets off a series of cosmic events that transform and threaten the planet. To save themselves from peril, Manny, Sid, Diego, and the rest of the herd leave their home an.... See More d embark on a quest full of thrills and spills, highs and lows, laughter and adventure while traveling to exotic new lands and encountering a host of colorful new characters.

Torrent Description



www.imdb.com/title/tt3416828/

Manny, Diego, and Sid join up with Buck to fend off a meteor strike that would destroy the world.

Source: FGT 4K Remux







Format : Matroska
Format version : Version 4 / Version 2
File size : 2.93 GiB
Duration : 1 h 34 min
Overall bit rate : 4 442 kb/s

Video
ID : 1
Format : HEVC
Format/Info : High Efficiency Video Coding
Format profile : Main [email protected]@High
Codec ID : V_MPEGH/ISO/HEVC
Duration : 1 h 34 min
Bit rate : 4 034 kb/s
Width : 3 840 pixels
Height : 1 600 pixels
Display aspect ratio : 2.40:1
Frame rate mode : Constant
Frame rate : 23.976 (24000/1001) FPS
Color space : YUV
Chroma subsampling : 4:2:0
Bit depth : 10 bits
Bits/(Pixel*Frame) : 0.027
Stream size : 2.66 GiB (91%)
Writing library : x265 2.6:[Windows][GCC 7.1.0][64 bit] 10bit

Audio
ID : 2
Format : AC-3
Format/Info : Audio Coding 3
Commercial name : Dolby Digital
Codec ID : A_AC3
Duration : 1 h 34 min
Bit rate mode : Constant
Bit rate : 320 kb/s
Channel(s) : 6 channels
Channel layout : L R C LFE Ls Rs
Sampling rate : 48.0 kHz
Frame rate : 31.250 FPS (1536 SPF)
Bit depth : 16 bits
Compression mode : Lossy
Stream size : 216 MiB (7%)
Title : Surround
Language : English

Text
Language : English
Language : Japanese
Language : Japanese
Language : Spanish
Language : French
Language : French
Language : Spanish
Language : Danish
Language : Dutch
Language : Finnish
Language : German
Language : Italian
Language : Norwegian
Language : Swedish
Language : Chinese
Language : Chinese
Default : No
Forced : No




Sharing Widget


No Comments For This Torrent . Be The First to Comment

You must Login to Comment . Click Here to Login

Menu 1

Some content in menu 1.

Ice Age Collision Course (2016) x 1600 (2160p) HDR 5 1 x265 10bit Phun (Size: 2.9 GB)
  Ice Age Collision Course (2016) x 1600 (2160p) HDR 5 1 x265 10bit Phun 2.9 GB
tracker name
udp://tracker.leechers-paradise.org:6969/announce
udp://zer0day.ch:1337/announce
udp://open.demonii.com:1337/announce
udp://tracker.coppersurfer.tk:6969/announce
udp://exodus.desync.com:6969/announce
µTorrent compatible trackers list

Relative Torrents

Torrent Name Size Age SEED LEECH
Mansfield 66 67 2017 720p BluRay H264 AA
Posted by    Trige   in   Movies
1.0 GB 44 seconds 206 238
A Few Best Men 2011 1080p BluRay H264 AA
Posted by    Trige   in   Movies
1.8 GB 44 seconds 352 260
Mansfield 66 67 2017 720p BRRip XviD AC3XVID
Posted by    Trige   in   Movies
2.6 GB 44 seconds 418 366
Whos Your Monkey 2007 BRRip XviD MP3-XVI
Posted by    Trige   in   Movies
1.1 GB 44 seconds 646 821
The Last House (2015) [WEBRip] [720p] [YS] [YIFY]
Posted by    YTSAGx   in   Movies
731.9 MB 44 seconds 501 449